» » » Trader Dante - Special Webinars Module 2
Article info
  • Views: 7
  • Author: buby2009
  • Date: 13-10-2018, 03:44
13-10-2018, 03:44

Trader Dante - Special Webinars Module 2

Category: Tutorial / Other Tutorial

Trader Dante - Special Webinars Module 2
Trader Dante - Special Webinars Module 2
WEBRip | English | MP4 | 1280 x 720 | AVC ~164 kbps | 15 fps
AAC 93.5 Kbps 44.1 KHz | 2 channels | ~16 hours | 1.25 GB
Genre: eLearning Video / Trading


These special webinars each cover an element of my trading strategy, or the business of trading. The material in each one can be understood and implemented, independently of the others. This is true even of the webinars that fall in two parts. As a result, a trader can view a single webinar to understand how I trade a particular setup or approach a key concept. At the same time, viewed in order, as a whole, the webinars present a comprehensive overview of my approach to the financial markets.
Module 2: Core Concepts, Advanced Techniques, Building Your Business and Increasing Performance

Webinar 01: Everything You Always Wanted To Know About TradingR30;But Were Afraid To Ask!
Webinar 02: Choosing Your Market To Specialise In
Webinar 03: Revisiting The SFP - Advanced Techniques For Trading The Setup
Webinar 04: Trading General Pattern Failure
Webinar 05: Market Mapping
Webinar 06: Constructing A Complete Trading Plan Part 1
Webinar 07: Constructing A Complete Trading Plan Part 2
Webinar 08: Techniques For Growing A Small Account
Webinar 09: Trading Psychology
Webinar 10: Drawing On The Knowledge Of Other Professionals
Webinar 11: Increasing Trader Performance
Webinar 12: How To Get A Job As A Trader


General
Complete name : 3. Advanced SFP.mp4
Format : MPEG-4
Format profile : Base Media
Codec ID : isom (isom/iso2/avc1/mp41)
File size : 146 MiB
Duration : 1 h 17 min
Overall bit rate mode : Variable
Overall bit rate : 261 kb/s
Writing application : Lavf54.59.106

Video
ID : 1
Format : AVC
Format/Info : Advanced Video Codec
Format profile : [email protected]
Format settings : CABAC / 4 Ref Frames
Format settings, CABAC : Yes
Format settings, RefFrames : 4 frames
Codec ID : avc1
Codec ID/Info : Advanced Video Coding
Duration : 1 h 17 min
Bit rate : 164 kb/s
Nominal bit rate : 1 000 kb/s
Width : 1 280 pixels
Height : 720 pixels
Display aspect ratio : 16:9
Frame rate mode : Constant
Frame rate : 15.000 FPS
Color space : YUV
Chroma subsampling : 4:2:0
Bit depth : 8 bits
Scan type : Progressive
Bits/(Pixel*Frame) : 0.012
Stream size : 91.2 MiB (63%)
Writing library : x264 core 133
Encoding settings : cabac=1 / ref=3 / deblock=1:0:0 / analyse=0x3:0x113 / me=hex / subme=7 / psy=1 / psy_rd=1.00:0.00 / mixed_ref=1 / me_range=16 / chroma_me=1 / trellis=1 / 8x8dct=1 / cqm=0 / deadzone=21,11 / fast_pskip=1 / chroma_qp_offset=-2 / threads=6 / lookahead_threads=1 / sliced_threads=0 / nr=0 / decimate=1 / interlaced=0 / bluray_compat=0 / constrained_intra=0 / bframes=3 / b_pyramid=2 / b_adapt=1 / b_bias=0 / direct=1 / weightb=1 / open_gop=0 / weightp=2 / keyint=250 / keyint_min=15 / scenecut=40 / intra_refresh=0 / rc_lookahead=40 / rc=abr / mbtree=1 / bitrate=1000 / ratetol=1.0 / qcomp=0.60 / qpmin=0 / qpmax=69 / qpstep=4 / ip_ratio=1.40 / aq=1:1.00
Language : English

Audio
ID : 2
Format : AAC
Format/Info : Advanced Audio Codec
Format profile : LC
Codec ID : mp4a-40-2
Duration : 1 h 17 min
Bit rate mode : Variable
Bit rate : 93.5 kb/s
Maximum bit rate : 128 kb/s
Channel(s) : 2 channels
Channel positions : Front: L R
Sampling rate : 44.1 kHz
Frame rate : 43.066 FPS (1024 SPF)
Compression mode : Lossy
Stream size : 52.1 MiB (36%)
Language : English
Default : Yes
Alternate group : 1


Trader Dante - Special Webinars Module 2

Download link:

Download Via Rapidgator.net
https://rapidgator.net/file/9fa7c38c25714713d82b6277087cc04d/ab8w6.Trader.Dante..Special.Webinars.Module.2.part1.rar.html
https://rapidgator.net/file/6bbbad397c9c9137d2d6638eaaa632d8/ab8w6.Trader.Dante..Special.Webinars.Module.2.part2.rar.html
https://rapidgator.net/file/e1eb7c393ffc88ef0d8384a8af54122d/ab8w6.Trader.Dante..Special.Webinars.Module.2.part3.rar.html
https://rapidgator.net/file/4b5765a2bfa6dadb36fd03bf26fdd1b1/ab8w6.Trader.Dante..Special.Webinars.Module.2.part4.rar.html
https://rapidgator.net/file/b608dd7766eb5760e25e4ffb3cda1b7b/ab8w6.Trader.Dante..Special.Webinars.Module.2.part5.rar.html
https://rapidgator.net/file/6df2c7dba6f989f13e489cf66f01667e/ab8w6.Trader.Dante..Special.Webinars.Module.2.part6.rar.html
https://rapidgator.net/file/acfba910f4772dc17ee0dffdd1944d8d/ab8w6.Trader.Dante..Special.Webinars.Module.2.part7.rar.html

Download Via Turbobit.net
https://turbobit.net/mdiwblryfsis/ab8w6.Trader.Dante..Special.Webinars.Module.2.part1.rar.html
https://turbobit.net/3vlqa3vqxxio/ab8w6.Trader.Dante..Special.Webinars.Module.2.part2.rar.html
https://turbobit.net/9qik2pqe4e81/ab8w6.Trader.Dante..Special.Webinars.Module.2.part3.rar.html
https://turbobit.net/8p1mtz0yn3ah/ab8w6.Trader.Dante..Special.Webinars.Module.2.part4.rar.html
https://turbobit.net/ikjfra6jine3/ab8w6.Trader.Dante..Special.Webinars.Module.2.part5.rar.html
https://turbobit.net/gkz981vo34my/ab8w6.Trader.Dante..Special.Webinars.Module.2.part6.rar.html
https://turbobit.net/rdoiurqbem5k/ab8w6.Trader.Dante..Special.Webinars.Module.2.part7.rar.html

Download Via Uploadgig.com
https://uploadgig.com/file/download/9E6dc06c8e537691/ab8w6.Trader.Dante..Special.Webinars.Module.2.part1.rar
https://uploadgig.com/file/download/402aAc0C483b8167/ab8w6.Trader.Dante..Special.Webinars.Module.2.part2.rar
https://uploadgig.com/file/download/F166d14d809ceC36/ab8w6.Trader.Dante..Special.Webinars.Module.2.part3.rar
https://uploadgig.com/file/download/d78db92F5d8c8cb5/ab8w6.Trader.Dante..Special.Webinars.Module.2.part4.rar
https://uploadgig.com/file/download/1c1bec6a3fD7afEb/ab8w6.Trader.Dante..Special.Webinars.Module.2.part5.rar
https://uploadgig.com/file/download/8CEabAca05699B60/ab8w6.Trader.Dante..Special.Webinars.Module.2.part6.rar
https://uploadgig.com/file/download/03312904e5Ef8d78/ab8w6.Trader.Dante..Special.Webinars.Module.2.part7.rar

Links are Interchangeable - No Password - Single Extraction
Dear visitor, you are browsing our website as Guest.
We strongly recommend you to register and login to view hidden contents.