» » » Matthew Owens - Triforce Trader
Article info
  • Views: 3
  • Author: buby2009
  • Date: 11-10-2018, 17:41
11-10-2018, 17:41

Matthew Owens - Triforce Trader

Category: Tutorial / Other Tutorial

Matthew Owens - Triforce Trader
Matthew Owens - Triforce Trader
WEBRip | English | MP4 + Project Files | 1920 x 1080 | AVC ~784 kbps | 30 fps
AAC 235 Kbps 48.0 KHz | 2 channels | ~11 hours | 4.62 GB
Genre: eLearning Video / Trading


Learn to trade with Matthew Owens (top Paul Scolardi aka Superman student). He has Verified 850,000 IN 1.5 Years ! My name is Matthew Owens, Im 25 years old. Im a full time Stock Trader, Tut, Gym Trainer, and Video Production Maker/Edit. I graduated from Flida Atlantic University with a double bachels. One in Psychology and one in German. Currently Im in my Master Program f Fensic Psychology at the University of Nth Dakota
Course Topics:

Introduction to stocks
Tools That I Use
Broker Terminals/Level 2
Psychology Of Trading/Trading Rules
Introduction To Technical Analysis
Ichimoku Cloud Basics and Chart Rules
Comprehensive Chart Trading
Introduction To Fundamentals
Financial Metrics and Terminologies
SEC Filings
Analyzing Press Releases
IPOS and Stock Splits
Biotechs
Stock Options
Penny Stock Trading
Futures Trading


General
Complete name : 9.Financial Metrics and Terminologies.mp4
Format : MPEG-4
Format profile : Base Media / Version 2
Codec ID : mp42 (mp42/mp41/isom/avc1)
File size : 422 MiB
Duration : 57 min 36 s
Overall bit rate mode : Variable
Overall bit rate : 1 023 kb/s
Encoded date : UTC 2015-07-16 00:47:15
Tagged date : UTC 2015-07-16 00:47:15

Video
ID : 1
Format : AVC
Format/Info : Advanced Video Codec
Format profile : [email protected]
Format settings : CABAC / 4 Ref Frames
Format settings, CABAC : Yes
Format settings, RefFrames : 4 frames
Codec ID : avc1
Codec ID/Info : Advanced Video Coding
Duration : 57 min 36 s
Bit rate : 784 kb/s
Nominal bit rate : 4 500 kb/s
Width : 1 920 pixels
Height : 1 080 pixels
Display aspect ratio : 16:9
Frame rate mode : Constant
Frame rate : 30.000 FPS
Color space : YUV
Chroma subsampling : 4:2:0
Bit depth : 8 bits
Scan type : Progressive
Bits/(Pixel*Frame) : 0.013
Stream size : 323 MiB (77%)
Writing library : x264 core 146 r11M 121396c
Encoding settings : cabac=1 / ref=4 / deblock=1:0:0 / analyse=0x3:0x113 / me=umh / subme=8 / psy=1 / psy_rd=1.00:0.00 / mixed_ref=1 / me_range=16 / chroma_me=1 / trellis=1 / 8x8dct=1 / cqm=0 / deadzone=21,11 / fast_pskip=1 / chroma_qp_offset=-2 / threads=48 / lookahead_threads=8 / sliced_threads=0 / nr=0 / decimate=1 / interlaced=0 / bluray_compat=0 / stitchable=1 / constrained_intra=0 / bframes=3 / b_pyramid=2 / b_adapt=2 / b_bias=0 / direct=3 / weightb=1 / open_gop=0 / weightp=2 / keyint=infinite / keyint_min=30 / scenecut=40 / intra_refresh=0 / rc_lookahead=50 / rc=2pass / mbtree=1 / bitrate=4500 / ratetol=1.0 / qcomp=0.60 / qpmin=5 / qpmax=69 / qpstep=4 / cplxblur=20.0 / qblur=0.5 / vbv_maxrate=4950 / vbv_bufsize=13500 / nal_hrd=none / filler=0 / ip_ratio=1.40 / aq=1:1.00
Encoded date : UTC 2015-07-16 00:47:15
Tagged date : UTC 2015-07-16 00:47:15
Color range : Limited
Color primaries : BT.709
Transfer characteristics : BT.709
Matrix coefficients : BT.709

Audio
ID : 2
Format : AAC
Format/Info : Advanced Audio Codec
Format profile : LC
Codec ID : mp4a-40-2
Duration : 57 min 36 s
Bit rate mode : Variable
Bit rate : 235 kb/s
Channel(s) : 2 channels
Channel positions : Front: L R
Sampling rate : 48.0 kHz
Frame rate : 46.875 FPS (1024 SPF)
Compression mode : Lossy
Stream size : 96.9 MiB (23%)
Encoded date : UTC 2015-07-16 00:47:15
Tagged date : UTC 2015-07-16 00:47:15


Matthew Owens - Triforce Trader

Download link:

Download Via Rapidgator.net
https://rapidgator.net/file/022a02e58f90673618be0f677a5ff741/qdkvd.Matthew.Owens..Triforce.Trader.repost.part1.rar.html
https://rapidgator.net/file/27ac9953de76672416ab2247b8c8aaf6/qdkvd.Matthew.Owens..Triforce.Trader.repost.part2.rar.html
https://rapidgator.net/file/35db03f221c9e8d7ba2d164f0910571c/qdkvd.Matthew.Owens..Triforce.Trader.repost.part3.rar.html
https://rapidgator.net/file/d4a04c72f914e3497f00bc05e319cac3/qdkvd.Matthew.Owens..Triforce.Trader.repost.part4.rar.html
https://rapidgator.net/file/c6f201bde1d3dc5a3e8f5edaa0124d38/qdkvd.Matthew.Owens..Triforce.Trader.repost.part5.rar.html
https://rapidgator.net/file/74723493dbd45e07c02909be128b190c/qdkvd.Matthew.Owens..Triforce.Trader.repost.part6.rar.html

Download Via Turbobit.net
https://turbobit.net/h7jax94w5twm/qdkvd.Matthew.Owens..Triforce.Trader.repost.part1.rar.html
https://turbobit.net/e2lzgp4lpv3g/qdkvd.Matthew.Owens..Triforce.Trader.repost.part2.rar.html
https://turbobit.net/1sqp3tn9vdq8/qdkvd.Matthew.Owens..Triforce.Trader.repost.part3.rar.html
https://turbobit.net/c2sgmo9eqv0v/qdkvd.Matthew.Owens..Triforce.Trader.repost.part4.rar.html
https://turbobit.net/c1a7g35ygsj9/qdkvd.Matthew.Owens..Triforce.Trader.repost.part5.rar.html
https://turbobit.net/sqhsynw1y6zv/qdkvd.Matthew.Owens..Triforce.Trader.repost.part6.rar.html

Download Via Uploadgig.com
https://uploadgig.com/file/download/9eaEb298570e582C/qdkvd.Matthew.Owens..Triforce.Trader.repost.part1.rar
https://uploadgig.com/file/download/16ab53Ac62b28088/qdkvd.Matthew.Owens..Triforce.Trader.repost.part2.rar
https://uploadgig.com/file/download/85Eedf47F9e86C11/qdkvd.Matthew.Owens..Triforce.Trader.repost.part3.rar
https://uploadgig.com/file/download/F940ef654881fFc1/qdkvd.Matthew.Owens..Triforce.Trader.repost.part4.rar
https://uploadgig.com/file/download/641841C5641b29F3/qdkvd.Matthew.Owens..Triforce.Trader.repost.part5.rar
https://uploadgig.com/file/download/Cd05831a6fcAecEd/qdkvd.Matthew.Owens..Triforce.Trader.repost.part6.rar

Links are Interchangeable - No Password - Single Extraction
Dear visitor, you are browsing our website as Guest.
We strongly recommend you to register and login to view hidden contents.