» » » The Music Of Paul Simon - Arranged for Fingerstyle Guitar
Article info
  • Views: 17
  • Author: buby2009
  • Date: 13-10-2018, 13:31
13-10-2018, 13:31

The Music Of Paul Simon - Arranged for Fingerstyle Guitar

Category: Tutorial / Music Learn Tutorial

The Music Of Paul Simon - Arranged for Fingerstyle Guitar
The Music Of Paul Simon - Arranged for Fingerstyle Guitar
DVD5 | English | VIDEO_TS | 720 x 480 | MPEG2 ~5394 kbps | 29.970 fps
AC-3 192 Kbps 48.0 KHz | 2 channel | 1h 30min | 3.56 GB
Genre: eLearning Video / Guitar lesson


Learn how to play and sing nine classic Paul Simon tunes from start to finish. You will learn how to fingerpick backup arrangements while singing. You will Learn how to play instrumental solos and how to begin and end each song. While studying Freds arrangements of these Paul Simon hits you will also learn a lot about fingerpicking: backup patterns, soloing ideas and various chord positions.
Each song is played at regular speed and then slowed down with a split-screen. That gives you a close-up look at the picking as well as chording hand. All the Arrangements are clearly written out in tab and music in the accompanying booklet along with lead sheets and lyrics.
Each of these instructional DVDs offers a good solid hour of insight into covering the tunes of their respective subjects. Both are taught by Fred Sokolow, an experienced, low-key instructor with a sense of humor. He chooses songs from varied periods of Simon's and Dylan's careers. Sokolow shows how to pick patterns while singing as well as how to create instrumental solos, and ideas for beginning and finishing each song. The patterns are clearly demonstrated on screen and there is accompanying written tab and notation.


General
Complete name : VTS_02_1.VOB
Format : MPEG-PS
File size : 1 024 MiB
Duration : 25 min 6 s
Overall bit rate mode : Variable
Overall bit rate : 5 700 kb/s

Video
ID : 224 (0xE0)
Format : MPEG Video
Format version : Version 2
Format profile : [email protected]
Format settings : CustomMatrix / BVOP
Format settings, BVOP : Yes
Format settings, Matrix : Custom
Format settings, GOP : M=3, N=15
Format settings, picture structure : Frame
Duration : 25 min 6 s
Bit rate mode : Variable
Bit rate : 5 394 kb/s
Maximum bit rate : 9 000 kb/s
Width : 720 pixels
Height : 480 pixels
Display aspect ratio : 4:3
Frame rate : 29.970 (30000/1001) FPS
Standard : NTSC
Color space : YUV
Chroma subsampling : 4:2:0
Bit depth : 8 bits
Scan type : Interlaced
Scan order : Top Field First
Compression mode : Lossy
Bits/(Pixel*Frame) : 0.521
Time code of first frame : 01:00:11:02
Time code source : Group of pictures header
GOP, Open/Closed : Closed
Stream size : 969 MiB (95%)

Audio
ID : 189 (0xBD)-128 (0x80)
Format : AC-3
Format/Info : Audio Coding 3
Muxing mode : DVD-Video
Duration : 25 min 6 s
Bit rate mode : Constant
Bit rate : 192 kb/s
Channel(s) : 2 channels
Channel positions : Front: L R
Sampling rate : 48.0 kHz
Frame rate : 31.250 FPS (1536 SPF)
Bit depth : 16 bits
Compression mode : Lossy
Stream size : 34.5 MiB (3%)
Service kind : Complete Main

Menu


The Music Of Paul Simon - Arranged for Fingerstyle Guitar

Download link:

Download Via Rapidgator.net
https://rapidgator.net/file/76dba0213c25c487784931d43cb42923/fxcjz.The.Music.Of.Paul.Simon..Arranged.for.Fingerstyle.Guitar.part1.rar.html
https://rapidgator.net/file/2061645876651bc48f092e310d5d944f/fxcjz.The.Music.Of.Paul.Simon..Arranged.for.Fingerstyle.Guitar.part2.rar.html
https://rapidgator.net/file/072113e0e830dd48725cae4dc7a6b3dd/fxcjz.The.Music.Of.Paul.Simon..Arranged.for.Fingerstyle.Guitar.part3.rar.html
https://rapidgator.net/file/f76afd9cf112fd88c142d68abb2376f5/fxcjz.The.Music.Of.Paul.Simon..Arranged.for.Fingerstyle.Guitar.part4.rar.html
https://rapidgator.net/file/a516d47a2d78ca822390561b0569346b/fxcjz.The.Music.Of.Paul.Simon..Arranged.for.Fingerstyle.Guitar.part5.rar.html
https://rapidgator.net/file/928a1841e87637de38e585635aace203/fxcjz.The.Music.Of.Paul.Simon..Arranged.for.Fingerstyle.Guitar.part6.rar.html

Download Via Turbobit.net
https://turbobit.net/dj4fg483dttg/fxcjz.The.Music.Of.Paul.Simon..Arranged.for.Fingerstyle.Guitar.part1.rar.html
https://turbobit.net/6ft4tl1w4bmt/fxcjz.The.Music.Of.Paul.Simon..Arranged.for.Fingerstyle.Guitar.part2.rar.html
https://turbobit.net/d6a4bnfr68sc/fxcjz.The.Music.Of.Paul.Simon..Arranged.for.Fingerstyle.Guitar.part3.rar.html
https://turbobit.net/773c6f2xvf2v/fxcjz.The.Music.Of.Paul.Simon..Arranged.for.Fingerstyle.Guitar.part4.rar.html
https://turbobit.net/ob3nvera98tu/fxcjz.The.Music.Of.Paul.Simon..Arranged.for.Fingerstyle.Guitar.part5.rar.html
https://turbobit.net/kaof1l0ml4xr/fxcjz.The.Music.Of.Paul.Simon..Arranged.for.Fingerstyle.Guitar.part6.rar.html

Download Via Uploadgig.com
https://uploadgig.com/file/download/6bcdaa0Bb8034b41/fxcjz.The.Music.Of.Paul.Simon..Arranged.for.Fingerstyle.Guitar.part1.rar
https://uploadgig.com/file/download/0e643c21F0B902f3/fxcjz.The.Music.Of.Paul.Simon..Arranged.for.Fingerstyle.Guitar.part2.rar
https://uploadgig.com/file/download/Dc66d09c19c991B0/fxcjz.The.Music.Of.Paul.Simon..Arranged.for.Fingerstyle.Guitar.part3.rar
https://uploadgig.com/file/download/620aae03b9d52e27/fxcjz.The.Music.Of.Paul.Simon..Arranged.for.Fingerstyle.Guitar.part4.rar
https://uploadgig.com/file/download/2e1d52aeb0910c3c/fxcjz.The.Music.Of.Paul.Simon..Arranged.for.Fingerstyle.Guitar.part5.rar
https://uploadgig.com/file/download/ba0C702f40858741/fxcjz.The.Music.Of.Paul.Simon..Arranged.for.Fingerstyle.Guitar.part6.rar

Links are Interchangeable - No Password - Single Extraction
Dear visitor, you are browsing our website as Guest.
We strongly recommend you to register and login to view hidden contents.