» » » The Mechanics Of Acoustic Guitar
Article info
  • Views: 8
  • Author: buby2009
  • Date: 12-10-2018, 16:30
12-10-2018, 16:30

The Mechanics Of Acoustic Guitar

Category: Tutorial / Music Learn Tutorial

The Mechanics Of Acoustic Guitar
The Mechanics Of Acoustic Guitar
2xDVDRip | English | AVI | 672 x 384 | XviD ~599 kbps | 25 fps
MP3 80 Kbps 48.0 KHz | 1 channel | 04:21:49 | 1.25 GB
Genre: eLearning Video / Guitar lesson


A complete guitar course for absolute beginners with Lee Hodgson This easy-to-follow tutorial is ideal if you have just bought your first guitar, or if there has been a guitar sitting around somewhere just waiting to be strummed This DVD will take you from novice level through to intermediate level. Yet it requires no prior knowledge at all: it truly is for someone starting from the beginning.
Slowly but surely, the tutor guides you through all the things that a beginner needs to know and, very importantly, points out what can go wrong. Each of the carefully designed chapters includes chord vocabulary, while commonly used scales and technique, are introduced strategically, along with some practical theory - nothing too demanding, just enough to help you understand what you are doing and why. You will soon be strumming chords, picking out melodies and, hopefully, writing some songs of your own! Making music has never been so easy! Lee Hodgson is a versatile studio musician and vastly experienced stage performer. He is also a regularly featured columnist and transcriber for both Guitarist and Guitar Techniques magazine

Content:

Introduction
Introduction (0:48)
Guitar Components (5:17)
Tuning The Guitar (11:21)
Chapter 1
Triads & Chord Structure (11:48)
C Major Scale (7:39)
Chord Vocabulary (10:44)
Counting In Quarter Notes (7:48)
Chapter 2
The A Minor Chord & Scale (8:14)
Scale Practice & Remaining Minor Chords (7:06)
Counting In 8th Notes (7:30)
Chapter 3
Dominant 7th Chords (G & E) (10:46)
PIMA & Plucking Techniques (12:15)
Chapter 4
Three Chord Trick (8:20)
Alternate Picking & Rests & Ties (11:39)
Chapter 5
Dominant 7th Chords (D, A, C & B) (5:51)
The 1 6 2 5 Progression (5:49)
Chapter 6
Suspended Chords & The G Major Scale (14:41)
Chapter 7
Barre Chords & The Chromatic Scale (19:11)
Chapter 8
C Shape Barre Chord & Major Scale Patterns (13:09)
Chapter 9
Major 7th Chords (7:07)
Minor 7th Chords (14:38)
Arpeggios & Chord Scales (5:58)
Alternating Bass Notes (6:52)
Counting In 16th Notes (11:09)
Chapter 10
12 Bar Blues (15:13)
Quick Change (7:51)
Pentatonic Minor & Blues Scales (7:17)
Lead Techniques (5:48)


General
Complete name : Suspended_Chords_&_The_G_Major_Scale.avi
Format : AVI
Format/Info : Audio Video Interleave
File size : 72.0 MiB
Duration : 14 min 41 s
Overall bit rate : 685 kb/s

Video
ID : 0
Format : MPEG-4 Visual
Format profile : Advanced [email protected]
Format settings : BVOP4 / GMC3 / QPel
Format settings, BVOP : 4
Format settings, QPel : Yes
Format settings, GMC : 3 warppoints
Format settings, Matrix : Default (H.263)
Muxing mode : Packed bitstream
Codec ID : XVID
Codec ID/Hint : XviD
Duration : 14 min 41 s
Bit rate : 599 kb/s
Width : 672 pixels
Height : 384 pixels
Display aspect ratio : 16:9
Frame rate : 25.000 FPS
Color space : YUV
Chroma subsampling : 4:2:0
Bit depth : 8 bits
Scan type : Progressive
Compression mode : Lossy
Bits/(Pixel*Frame) : 0.093
Stream size : 63.0 MiB (87%)
Writing library : XviD 1.2.1 (UTC 2008-12-04)

Audio
ID : 1
Format : MPEG Audio
Format version : Version 1
Format profile : Layer 3
Codec ID : 55
Codec ID/Hint : MP3
Duration : 14 min 41 s
Bit rate mode : Constant
Bit rate : 80.0 kb/s
Channel(s) : 1 channel
Sampling rate : 48.0 kHz
Compression mode : Lossy
Stream size : 8.41 MiB (12%)
Alignment : Split accross interleaves
Interleave, duration : 200 ms (5.00 video frames)
Interleave, preload duration : 500 ms
Writing library : LAME3.98.2

The Mechanics Of Acoustic Guitar

Download link:


Links are Interchangeable - No Password - Single Extraction
Dear visitor, you are browsing our website as Guest.
We strongly recommend you to register and login to view hidden contents.