» » » Neo Soul Guitar Guidebook with Rory Ronde's
Article info
  • Views: 4
  • Author: buby2009
  • Date: 12-10-2018, 06:56
12-10-2018, 06:56

Neo Soul Guitar Guidebook with Rory Ronde's

Category: Tutorial / Music Learn Tutorial

Neo Soul Guitar Guidebook with Rory Ronde's
Neo Soul Guitar Guidebook with Rory Ronde's
WEBRip | English | MP4 | 960 x 540 | AVC ~971 kbps | 29.970 fps
AAC 128 Kbps 48.0 KHz | 2 channel | 01:43:00 | 927.5 MB
Genre: eLearning Video / Guitar lesson


Incorporating Jazz, Funk, Hip Hop, Fusion and even African elements in their sonic palette, Neo Soul artists have expanded the boundaries of popular Soul music. Bands like The Roots, D'Angelo, Slum Village, A Tribe Called Quest, artists like Maxwell, Lauryn Hill, Erykah Badu and producers like J Dilla, MadLib and DJ Hi-Tek have inspired a fresh and original approach for contemporary, soulful guitar performance.
Rory Ronde's Neo Soul Guitar Guidebook guides you through the Neo Soul landscape of fresh original sounds, hip timing, guitar sampling, and mesmerizing grooves. Rory passes on 7 key New Soul guitar concepts and techniques for fingerstyle approaches, embellishing chords, Neo Soul chord voicings, movement within chords, hammers, pulls, double-stops and sequencing. He'll then demonstrate all of these key concepts and techniques across 8 performance studies.

Ronde is a member of several bands including New Cool Collective, Wouter Hamel, LaGarçon* and Les Cooles De Ville. Ronde is also a songwriter and music producer, working under the alias Kofi Anonymous. Ronde has performed his music all over the world and, fortunately for we students of guitar, is also a passionate educator. We are very excited to welcome Rory to the family with his first TrueFire course, the Neo Soul Guitar Guidebook!

Rory's 8 Performance studies cover the range of techniques, feels, and chord progressions that are most common in the Neo Soul genre. For each study, Rory will first demonstrate the performance and then break it down for you emphasizing the key concepts and techniques in play.

All of the key examples and performance studies are tabbed and notated for your practice, reference and study purposes. You'll also get Guitar Pro files so that you can play, loop and/or slow down the tab and notation as you work through the lessons. Plus, Rory includes all of the backing tracks for you to work with on your own.

Grab your guitar and let's get our Neo Soul groove on with Rory Ronde!

General
Complete name : rrnsgg-002.mp4
Format : MPEG-4
Format profile : Base Media / Version 2
Codec ID : mp42 (mp42/isom)
File size : 36.0 MiB
Duration : 4 min 33 s
Overall bit rate mode : Variable
Overall bit rate : 1 104 kb/s
Encoded date : UTC 2017-09-29 00:45:09
Tagged date : UTC 2017-09-29 00:45:09

Video
ID : 2
Format : AVC
Format/Info : Advanced Video Codec
Format profile : [email protected]
Format settings : CABAC / 3 Ref Frames
Format settings, CABAC : Yes
Format settings, RefFrames : 3 frames
Codec ID : avc1
Codec ID/Info : Advanced Video Coding
Duration : 4 min 33 s
Bit rate mode : Variable
Bit rate : 971 kb/s
Maximum bit rate : 2 000 kb/s
Width : 960 pixels
Height : 540 pixels
Display aspect ratio : 16:9
Frame rate mode : Constant
Frame rate : 29.970 (30000/1001) FPS
Standard : NTSC
Color space : YUV
Chroma subsampling : 4:2:0
Bit depth : 8 bits
Scan type : Progressive
Bits/(Pixel*Frame) : 0.062
Stream size : 31.6 MiB (88%)
Language : English
Encoded date : UTC 2017-09-29 00:45:09
Tagged date : UTC 2017-09-29 00:45:09
Color range : Limited

Audio
ID : 1
Format : AAC
Format/Info : Advanced Audio Codec
Format profile : LC
Codec ID : mp4a-40-2
Duration : 4 min 33 s
Bit rate mode : Constant
Bit rate : 128 kb/s
Channel(s) : channel0
Channel(s)_Original : 2 channels
Channel positions : Front: L R
Sampling rate : 48.0 kHz
Frame rate : 46.875 FPS (1024 SPF)
Compression mode : Lossy
Stream size : 4.17 MiB (12%)
Language : English
Encoded date : UTC 2017-09-29 00:45:09
Tagged date : UTC 2017-09-29 00:45:09

Neo Soul Guitar Guidebook with Rory Ronde's

Download link:

Download Via Rapidgator.net
https://rapidgator.net/file/c3772612ac05d66487bfd08d0c39781b/ngr15.Neo.Soul.Guitar.Guidebook.with.Rory.Rondes.part1.rar.html
https://rapidgator.net/file/090b46cbc01953622db5afa0905689a3/ngr15.Neo.Soul.Guitar.Guidebook.with.Rory.Rondes.part2.rar.html
https://rapidgator.net/file/076aa2b9aa5885b03af7404d59eca7ae/ngr15.Neo.Soul.Guitar.Guidebook.with.Rory.Rondes.part3.rar.html
https://rapidgator.net/file/5e82b2f6db312ab1124af563d48a97bf/ngr15.Neo.Soul.Guitar.Guidebook.with.Rory.Rondes.part4.rar.html
https://rapidgator.net/file/838cc3a8389c01212292651affc40611/ngr15.Neo.Soul.Guitar.Guidebook.with.Rory.Rondes.part5.rar.html
https://rapidgator.net/file/8cf0d88b942a5a9bf4fa2a5fedbb9e79/ngr15.Neo.Soul.Guitar.Guidebook.with.Rory.Rondes.part6.rar.html
https://rapidgator.net/file/70d840475a187d12c9d019e893ef0dde/ngr15.Neo.Soul.Guitar.Guidebook.with.Rory.Rondes.part7.rar.html

Download Via Turbobit.net
https://turbobit.net/2b0ncbj4muax/ngr15.Neo.Soul.Guitar.Guidebook.with.Rory.Rondes.part1.rar.html
https://turbobit.net/x8k51oavq3um/ngr15.Neo.Soul.Guitar.Guidebook.with.Rory.Rondes.part2.rar.html
https://turbobit.net/8djrhzgg29y5/ngr15.Neo.Soul.Guitar.Guidebook.with.Rory.Rondes.part3.rar.html
https://turbobit.net/nwv2174uxild/ngr15.Neo.Soul.Guitar.Guidebook.with.Rory.Rondes.part4.rar.html
https://turbobit.net/c3ahwu5i5886/ngr15.Neo.Soul.Guitar.Guidebook.with.Rory.Rondes.part5.rar.html
https://turbobit.net/athv1wrwh4nx/ngr15.Neo.Soul.Guitar.Guidebook.with.Rory.Rondes.part6.rar.html
https://turbobit.net/e0gocvaps5n9/ngr15.Neo.Soul.Guitar.Guidebook.with.Rory.Rondes.part7.rar.html

Download Via Uploadgig.com
https://uploadgig.com/file/download/5E8e5Cbe449d406a/ngr15.Neo.Soul.Guitar.Guidebook.with.Rory.Rondes.part1.rar
https://uploadgig.com/file/download/0dd3240b42B5bfca/ngr15.Neo.Soul.Guitar.Guidebook.with.Rory.Rondes.part2.rar
https://uploadgig.com/file/download/79fAaa450726ff80/ngr15.Neo.Soul.Guitar.Guidebook.with.Rory.Rondes.part3.rar
https://uploadgig.com/file/download/2eAa8215f91EbeCE/ngr15.Neo.Soul.Guitar.Guidebook.with.Rory.Rondes.part4.rar
https://uploadgig.com/file/download/5f784efaea1247C6/ngr15.Neo.Soul.Guitar.Guidebook.with.Rory.Rondes.part5.rar
https://uploadgig.com/file/download/aB24eAe1d1B03db4/ngr15.Neo.Soul.Guitar.Guidebook.with.Rory.Rondes.part6.rar
https://uploadgig.com/file/download/a4d0E9AFF3f08c90/ngr15.Neo.Soul.Guitar.Guidebook.with.Rory.Rondes.part7.rar

Links are Interchangeable - No Password - Single Extraction
Dear visitor, you are browsing our website as Guest.
We strongly recommend you to register and login to view hidden contents.