» » » Essentials: Soul Rhythm Guitar with James Hogan's
Article info
  • Views: 18
  • Author: buby2009
  • Date: 12-10-2018, 03:29
12-10-2018, 03:29

Essentials: Soul Rhythm Guitar with James Hogan's

Category: Tutorial / Music Learn Tutorial

Essentials: Soul Rhythm Guitar with James Hogan's
Essentials: Soul Rhythm Guitar with James Hogan's
WEBRip | English | MP4 | 960 x 540 | AVC ~965 kbps | 29.970 fps
AAC 125 Kbps 48.0 KHz | 2 channel | 01:30:00 | 833.6 MB
Genre: eLearning Video / Guitar lesson


Virtually every style of popular music today features rhythm guitar work inspired by legendary guitarists such as Steve Cropper, Spanky Alford, Curtis Mayfield, Jimmy Johnson, Cornell Dupree, Leo Nocentelli, Eddie "Chank" Willis, Marv Tarplin, and Reggie Young. Their ‘soulful' contributions to literally hundreds of hit songs have influenced every generation of guitar players to come.
Rock, Pop, Blues, R&B, or even Singer-Songwriter - whatever your preferred style happens to be, inject a little ‘soul' into your rhythm guitar work to majorly spice up your originals, covers, and jams. There's no better, or quicker way to learn how to do that than jumping on the bus with James Hogan as he guides you through his Soul Rhythm Guitar edition of Essentials.

James presents 10 Soul Rhythm Guitar performance studies to cover the definitive range of soul guitar grooves. He'll perform every groove over a rhythm track, and then break it down for you measure-by-measure.

All of the performance studies are tabbed and notated for your practice, reference and study purposes. You'll also get Guitar Pro files so that you can play, loop and/or slow down the tab and notation as you work through the lessons. Plus, James includes all of the backing tracks for you to work with on your own.

Grab your guitar and let's get soulful with James Hogan!


General
Complete name : jhesrg-010.mp4
Format : MPEG-4
Format profile : Base Media / Version 2
Codec ID : mp42 (mp42/mp41)
File size : 4.69 MiB
Duration : 35 s 869 ms
Overall bit rate mode : Variable
Overall bit rate : 1 098 kb/s
Encoded date : UTC 2017-07-20 22:36:17
Tagged date : UTC 2017-07-20 22:36:18
TIM : 00;00;00;00
TSC : 30000
TSZ : 1001

Video
ID : 1
Format : AVC
Format/Info : Advanced Video Codec
Format profile : [email protected]
Format settings : CABAC / 4 Ref Frames
Format settings, CABAC : Yes
Format settings, RefFrames : 4 frames
Codec ID : avc1
Codec ID/Info : Advanced Video Coding
Duration : 35 s 869 ms
Bit rate : 965 kb/s
Width : 960 pixels
Height : 540 pixels
Display aspect ratio : 16:9
Frame rate mode : Constant
Frame rate : 29.970 (30000/1001) FPS
Standard : NTSC
Color space : YUV
Chroma subsampling : 4:2:0
Bit depth : 8 bits
Scan type : Progressive
Bits/(Pixel*Frame) : 0.062
Stream size : 4.13 MiB (88%)
Language : English
Encoded date : UTC 2017-07-20 22:36:17
Tagged date : UTC 2017-07-20 22:36:17
Color range : Limited
Color primaries : BT.601 NTSC
Transfer characteristics : BT.601
Matrix coefficients : BT.601

Audio
ID : 2
Format : AAC
Format/Info : Advanced Audio Codec
Format profile : LC
Codec ID : mp4a-40-2
Duration : 35 s 869 ms
Source duration : 35 s 904 ms
Bit rate mode : Variable
Bit rate : 125 kb/s
Maximum bit rate : 193 kb/s
Channel(s) : 2 channels
Channel positions : Front: L R
Sampling rate : 48.0 kHz
Frame rate : 46.875 FPS (1024 SPF)
Compression mode : Lossy
Stream size : 549 KiB (11%)
Source stream size : 549 KiB (11%)
Language : English
Encoded date : UTC 2017-07-20 22:36:17
Tagged date : UTC 2017-07-20 22:36:17

Essentials: Soul Rhythm Guitar with James Hogan's

Download link:

Download Via Rapidgator.net
https://rapidgator.net/file/b2ec071890236c7b81f8faa3bb9cd75f/h7zeq.Essentials.Soul.Rhythm.Guitar.with.James.Hogans.part1.rar.html
https://rapidgator.net/file/09fae858bb9118e95b8dcab763422fcc/h7zeq.Essentials.Soul.Rhythm.Guitar.with.James.Hogans.part2.rar.html
https://rapidgator.net/file/a494e9b01276810f8fe04dd2c9b706b7/h7zeq.Essentials.Soul.Rhythm.Guitar.with.James.Hogans.part3.rar.html
https://rapidgator.net/file/ce9326254c2e8fd4e9610d76c19c2718/h7zeq.Essentials.Soul.Rhythm.Guitar.with.James.Hogans.part4.rar.html
https://rapidgator.net/file/011cc251b99069175baa32138b0c2fe0/h7zeq.Essentials.Soul.Rhythm.Guitar.with.James.Hogans.part5.rar.html
https://rapidgator.net/file/412ac8cada63754478aa951e131b05ab/h7zeq.Essentials.Soul.Rhythm.Guitar.with.James.Hogans.part6.rar.html
https://rapidgator.net/file/dedf99075c0ccbae7e171a0ecaf2b154/h7zeq.Essentials.Soul.Rhythm.Guitar.with.James.Hogans.part7.rar.html
https://rapidgator.net/file/8dc7a62c43ad2972ff6990844acacc36/h7zeq.Essentials.Soul.Rhythm.Guitar.with.James.Hogans.part8.rar.html

Download Via Turbobit.net
https://turbobit.net/dkr0jfws96vz/h7zeq.Essentials.Soul.Rhythm.Guitar.with.James.Hogans.part1.rar.html
https://turbobit.net/nr07vvupaj4l/h7zeq.Essentials.Soul.Rhythm.Guitar.with.James.Hogans.part2.rar.html
https://turbobit.net/bga9uqvr8cxt/h7zeq.Essentials.Soul.Rhythm.Guitar.with.James.Hogans.part3.rar.html
https://turbobit.net/zl3pmfvzgqme/h7zeq.Essentials.Soul.Rhythm.Guitar.with.James.Hogans.part4.rar.html
https://turbobit.net/55p20cgktacg/h7zeq.Essentials.Soul.Rhythm.Guitar.with.James.Hogans.part5.rar.html
https://turbobit.net/ij677hnnjw22/h7zeq.Essentials.Soul.Rhythm.Guitar.with.James.Hogans.part6.rar.html
https://turbobit.net/mpbvx1wm76w5/h7zeq.Essentials.Soul.Rhythm.Guitar.with.James.Hogans.part7.rar.html
https://turbobit.net/sb3cjci287cx/h7zeq.Essentials.Soul.Rhythm.Guitar.with.James.Hogans.part8.rar.html

Download Via Uploadgig.com
https://uploadgig.com/file/download/69E41676655f2733/h7zeq.Essentials.Soul.Rhythm.Guitar.with.James.Hogans.part1.rar
https://uploadgig.com/file/download/C538e164e0c26a4a/h7zeq.Essentials.Soul.Rhythm.Guitar.with.James.Hogans.part2.rar
https://uploadgig.com/file/download/8b6656d228921bd7/h7zeq.Essentials.Soul.Rhythm.Guitar.with.James.Hogans.part3.rar
https://uploadgig.com/file/download/e18e88e61a8a66C3/h7zeq.Essentials.Soul.Rhythm.Guitar.with.James.Hogans.part4.rar
https://uploadgig.com/file/download/1eaFA92637664464/h7zeq.Essentials.Soul.Rhythm.Guitar.with.James.Hogans.part5.rar
https://uploadgig.com/file/download/75Dab8936fdbcB65/h7zeq.Essentials.Soul.Rhythm.Guitar.with.James.Hogans.part6.rar
https://uploadgig.com/file/download/6e3d1B1Fa2e8Fbd0/h7zeq.Essentials.Soul.Rhythm.Guitar.with.James.Hogans.part7.rar
https://uploadgig.com/file/download/391daCaa99c0288a/h7zeq.Essentials.Soul.Rhythm.Guitar.with.James.Hogans.part8.rar

Links are Interchangeable - No Password - Single Extraction
Dear visitor, you are browsing our website as Guest.
We strongly recommend you to register and login to view hidden contents.