» » » The Cole Porter Songbook taught with Fred Sokolow
Article info
  • Views: 7
  • Author: buby2009
  • Date: 11-10-2018, 18:10
11-10-2018, 18:10

The Cole Porter Songbook taught with Fred Sokolow

Category: Tutorial / Music Learn Tutorial

The Cole Porter Songbook taught with Fred Sokolow
The Cole Porter Songbook taught with Fred Sokolow
DVD5 | English | VIDEO_TS | 720 x 480 | MPEG2 ~5557 kbps | 29.970 fps
AC-3 192 Kbps 48.0 KHz | 2 channel | 01:09:00 | 3.6 GB
Genre: eLearning Video / Guitar lesson


Cole Porter's beautiful, witty songs have become timeless jazz standards, and they sound great on guitar. In this dvd, Fred plays and teaches six complete arrangements of Cole Porter gems, including guitar backup (for singing) and instrumental chord solos for each tune. Just for fun, Fred includes the rarely-heard introductory verses to three of the songs, as well as ad-lib instrumental solos.
After playing each tune, Fred gives you a run-down on the arrangement, going over tricky spots and analyzing the chord progression and substitutions. Then he replays it, slower, on a split screen with close-ups of both hands. Best of all, you can read all six arrangements (tablature, music and chord grids) in the booklet that comes with this video.
Chord soloing (playing the melody and chords at the same time) is a very complete and satisfying guitar style. This lesson will get you playing some of the classiest jazz tunes ever written


General
Complete name : VTS_02_1.VOB
Format : MPEG-PS
File size : 1 024 MiB
Duration : 24 min 24 s
Overall bit rate mode : Variable
Overall bit rate : 5 866 kb/s

Video
ID : 224 (0xE0)
Format : MPEG Video
Format version : Version 2
Format profile : [email protected]
Format settings : CustomMatrix / BVOP
Format settings, BVOP : Yes
Format settings, Matrix : Custom
Format settings, GOP : M=2, N=16
Format settings, picture structure : Frame
Duration : 24 min 24 s
Bit rate mode : Variable
Bit rate : 5 557 kb/s
Maximum bit rate : 9 600 kb/s
Width : 720 pixels
Height : 480 pixels
Display aspect ratio : 4:3
Frame rate : 29.970 (30000/1001) FPS
Standard : NTSC
Color space : YUV
Chroma subsampling : 4:2:0
Bit depth : 8 bits
Scan type : Interlaced
Scan order : Top Field First
Compression mode : Lossy
Bits/(Pixel*Frame) : 0.537
Time code of first frame : 00:59:59:15
Time code source : Group of pictures header
GOP, Open/Closed : Open
GOP, Open/Closed of first frame : Closed
Stream size : 970 MiB (95%)

Audio
ID : 189 (0xBD)-128 (0x80)
Format : AC-3
Format/Info : Audio Coding 3
Muxing mode : DVD-Video
Duration : 24 min 23 s
Bit rate mode : Constant
Bit rate : 192 kb/s
Channel(s) : 2 channels
Channel positions : Front: L R
Sampling rate : 48.0 kHz
Frame rate : 31.250 FPS (1536 SPF)
Bit depth : 16 bits
Compression mode : Lossy
Stream size : 33.5 MiB (3%)
Service kind : Complete Main

Menu

The Cole Porter Songbook taught with Fred Sokolow

Download link:

Download Via Rapidgator.net
https://rapidgator.net/file/806c565c01518a8554777a28c0239dca/fkltb.The.Cole.Porter.Songbook.taught.with.Fred.Sokolow.part1.rar.html
https://rapidgator.net/file/d85c2946e556b6cb38c6b718e1991a96/fkltb.The.Cole.Porter.Songbook.taught.with.Fred.Sokolow.part2.rar.html
https://rapidgator.net/file/ccd33338c5f98d6cb20afc463583eccf/fkltb.The.Cole.Porter.Songbook.taught.with.Fred.Sokolow.part3.rar.html
https://rapidgator.net/file/2788c97bbe712d42b3bdc4bcc5f7ad53/fkltb.The.Cole.Porter.Songbook.taught.with.Fred.Sokolow.part4.rar.html
https://rapidgator.net/file/19bb6e9277479867529340264079ada4/fkltb.The.Cole.Porter.Songbook.taught.with.Fred.Sokolow.part5.rar.html

Download Via Turbobit.net
https://turbobit.net/7fs6k4uxxssp/fkltb.The.Cole.Porter.Songbook.taught.with.Fred.Sokolow.part1.rar.html
https://turbobit.net/ygtueiurkigd/fkltb.The.Cole.Porter.Songbook.taught.with.Fred.Sokolow.part2.rar.html
https://turbobit.net/bab59ps2vvjz/fkltb.The.Cole.Porter.Songbook.taught.with.Fred.Sokolow.part3.rar.html
https://turbobit.net/cb8a0crso3lg/fkltb.The.Cole.Porter.Songbook.taught.with.Fred.Sokolow.part4.rar.html
https://turbobit.net/yc04tqtt13gy/fkltb.The.Cole.Porter.Songbook.taught.with.Fred.Sokolow.part5.rar.html

Download Via Uploadgig.com
https://uploadgig.com/file/download/BfCb7b538d4Dfdbc/fkltb.The.Cole.Porter.Songbook.taught.with.Fred.Sokolow.part1.rar
https://uploadgig.com/file/download/c81ec52ceFA9fD8a/fkltb.The.Cole.Porter.Songbook.taught.with.Fred.Sokolow.part2.rar
https://uploadgig.com/file/download/B9bbb8B1d7e541A5/fkltb.The.Cole.Porter.Songbook.taught.with.Fred.Sokolow.part3.rar
https://uploadgig.com/file/download/8906f0e0e93E7591/fkltb.The.Cole.Porter.Songbook.taught.with.Fred.Sokolow.part4.rar
https://uploadgig.com/file/download/6A2E5aea7b44ad89/fkltb.The.Cole.Porter.Songbook.taught.with.Fred.Sokolow.part5.rar

Links are Interchangeable - No Password - Single Extraction
Dear visitor, you are browsing our website as Guest.
We strongly recommend you to register and login to view hidden contents.